Torrent details for "Aquaman.2018.HC.HDRip.XviD.AC3.LLG"

Loading...
Torrent details
Cover
Download
Torrent rating (0 rated)
Controls:
Category:
Language:
English English
Total Size:
1.10 GB
Info Hash:
eca8294acfe18f787b178142499f63d3b5f88b73
Added By:
Added:  
31-01-2019 03:51
Views:
542
Health:
Seeds:
81
Leechers:
17
Completed:
878

File List : 
Title:
Aquaman (2018)
Genre:
Action, Adventure, Fantasy, Sci-Fi
Runtime:
143 min    -    Rating: 8.5
Director:
Plot:
Arthur Curry learns that he is the heir to the underwater kingdom of Atlantis, and must step forward to lead his people and be a hero to the world.

Description

Quote:



******************************Thumbnail:**********************



******************************Screenshots:********************

Screenshot 1

Screenshot 2

Screenshot 3

Screenshot 4

Screenshot 5

Screenshot 6

Screenshot 7

Screenshot 8

Screenshot 9

Screenshot 0


******************************************************

Aquaman.2018.HC.HDRip.XviD.AC3.LLG.mp4
Format                                   : MPEG-4
Format profile                           : Base Media
Codec ID                                 : isom (isom/iso2/avc1/mp41)
File size                                : 1.10 GiB
Duration                                 : 2 h 22 min
Overall bit rate mode                    : Variable
Overall bit rate                         : 1 108 kb/s
Writing application                      : Lavf57.83.100

Video
ID                                       : 1
Format                                   : AVC
Format/Info                              : Advanced Video Codec
Format profile                           : [email protected]
Format settings                          : CABAC / 1 Ref Frames
Format settings, CABAC                   : Yes
Format settings, RefFrames               : 1 frame
Codec ID                                 : avc1
Codec ID/Info                            : Advanced Video Coding
Duration                                 : 2 h 22 min
Bit rate mode                            : Variable
Bit rate                                 : 913 kb/s
Maximum bit rate                         : 2 700 kb/s
Width                                    : 720 pixels
Height                                   : 304 pixels
Display aspect ratio                     : 2.35:1
Frame rate mode                          : Constant
Frame rate                               : 29.970 (29970/1000) FPS
Original frame rate                      : 29.970 (30000/1001) FPS
Color space                              : YUV
Chroma subsampling                       : 4:2:0
Bit depth                                : 8 bits
Scan type                                : Progressive
Bits/(Pixel*Frame)                       : 0.139
Stream size                              : 931 MiB (82%)
Codec configuration box                  : avcC

Audio
ID                                       : 2
Format                                   : AC-3
Format/Info                              : Audio Coding 3
Commercial name                          : Dolby Digital
Codec ID                                 : ac-3
Duration                                 : 2 h 22 min
Bit rate mode                            : Constant
Bit rate                                 : 192 kb/s
Channel(s)                               : 2 channels
Channel layout                           : L R
Sampling rate                            : 48.0 kHz
Frame rate                               : 31.250 FPS (1536 SPF)
Bit depth                                : 16 bits
Compression mode                         : Lossy
Stream size                              : 196 MiB (17%)
Title                                    : T2_Audio - English
Service kind                             : Complete Main
Default                                  : Yes
Alternate group                          : 1




********************************************************


Similar torrents

Name 
DL
Uploader
Size 
S/L 
Added
1.45 GB
10,921
[1,813/245]
23/01/19 23:24
-
2.99 GB
11,255
[529/71]
18/12/18 14:07
-
1.13 GB
2,063
[166/23]
03/01/19 09:20
-
1.40 GB
15,514
[103/27]
23/12/18 03:48
-
2.06 GB
1,638
[98/8]
21/12/18 18:51

  User comments

No comments have been posted yet.


Post anonymous comment
:) :( :D :P :-) B) 8o :? 8) ;) :-* :-( :| O:-D :-@ :o) brb :warn :help :bad :love :idea :bomb :!


CAPTCHA Image