Torrent details for "Hunter.Killer.2018.720p.WEB-DL.DD5.1.H264.LLG"

Loading...
Torrent details
Cover
Download
Torrent rating (0 rated)
Controls:
Category:
Language:
English English
Total Size:
1.63 GB
Info Hash:
604d0c76c316fa91b1959ec84e2ae05202487bc5
Added By:
Added:  
31-01-2019 04:33
Views:
102
Health:
Seeds:
8
Leechers:
6
Completed:
129

File List : 
Title:
Genre:
Action, Thriller
Runtime:
122 min    -    Rating: 6.6
Director:
Plot:
A U.S. submarine, the USS Tampa Bay, vanishes while shadowing a Russian Akula-class submarine in the Arctic. Rear Admiral John Fisk sends a Virginia-class submarine, the USS Arkansas, under the command of newly-promoted and unorthodox Commander Joe Glass to investigate. At the same time, a Navy SEAL team under the command of Lieutenant Bill Beaman is sent in to discreetly observe a Russian naval base. When they arrive at the naval base, they witness defense minister Dmitri Durov conducting a coup d'etat and taking Russian President Zakarin prisoner, and swiftly realize that Durov intends to trigger a war..

Description

Quote:



******************************Thumbnail:**********************



******************************Screenshots:********************

Screenshot 1

Screenshot 2

Screenshot 3

Screenshot 4

Screenshot 5

Screenshot 6

Screenshot 7

Screenshot 8

Screenshot 9

Screenshot 0


******************************************************

Hunter.Killer.2018.720p.WEB-DL.DD5.1.H264.LLG.mp4
Format                                   : MPEG-4
Format profile                           : Base Media
Codec ID                                 : isom (isom/iso2/avc1/mp41)
File size                                : 1.63 GiB
Duration                                 : 2 h 1 min
Overall bit rate mode                    : Variable
Overall bit rate                         : 1 919 kb/s
Writing application                      : Lavf57.83.100

Video
ID                                       : 1
Format                                   : AVC
Format/Info                              : Advanced Video Codec
Format profile                           : [email protected]
Format settings                          : CABAC / 1 Ref Frames
Format settings, CABAC                   : Yes
Format settings, RefFrames               : 1 frame
Codec ID                                 : avc1
Codec ID/Info                            : Advanced Video Coding
Duration                                 : 2 h 1 min
Bit rate mode                            : Variable
Bit rate                                 : 1 532 kb/s
Maximum bit rate                         : 4 500 kb/s
Width                                    : 1 280 pixels
Height                                   : 536 pixels
Display aspect ratio                     : 2.40:1
Original display aspect ratio            : 2.40:1
Frame rate mode                          : Constant
Frame rate                               : 23.976 (23976/1000) FPS
Color space                              : YUV
Chroma subsampling                       : 4:2:0
Bit depth                                : 8 bits
Scan type                                : Progressive
Bits/(Pixel*Frame)                       : 0.093
Stream size                              : 1.30 GiB (80%)
Codec configuration box                  : avcC

Audio
ID                                       : 2
Format                                   : AC-3
Format/Info                              : Audio Coding 3
Commercial name                          : Dolby Digital
Codec ID                                 : ac-3
Duration                                 : 2 h 1 min
Bit rate mode                            : Constant
Bit rate                                 : 384 kb/s
Channel(s)                               : 6 channels
Channel layout                           : L R C LFE Ls Rs
Sampling rate                            : 48.0 kHz
Frame rate                               : 31.250 FPS (1536 SPF)
Bit depth                                : 16 bits
Compression mode                         : Lossy
Stream size                              : 334 MiB (20%)
Language                                 : English
Service kind                             : Complete Main
Default                                  : Yes





********************************************************


  User comments

No comments have been posted yet.


Post anonymous comment
:) :( :D :P :-) B) 8o :? 8) ;) :-* :-( :| O:-D :-@ :o) brb :warn :help :bad :love :idea :bomb :!


CAPTCHA Image