Torrent details for "Ride.2018.1080p.BluRay.x264.LLG"

Loading...
Torrent details
Cover
Download
Torrent rating (0 rated)
Controls:
Category:
Language:
English English
Total Size:
2.16 GB
Info Hash:
ef2649ec521dab0d4a7c500d9dd3c1b15ba5c7cd
Added By:
Added:  
05-02-2019 04:48
Views:
140
Health:
Seeds:
1
Leechers:
3
Completed:
3

File List : 
Title:
Ride (2018)
Genre:
Thriller
Runtime:
79 min    -    Rating: 5.5
Director:
Plot:
RIDE is a cautionary tale aimed at a technology-obsessed society. When James, an Uber driver, and his passenger, Jessica, pick up the charismatic but manipulative Bruno, a normal night out in LA becomes a psychological war for survival.

Description

Quote:



******************************Thumbnail:**********************



******************************Screenshots:********************

Screenshot 1

Screenshot 2

Screenshot 3

Screenshot 4

Screenshot 5

Screenshot 6

Screenshot 7

Screenshot 8

Screenshot 9

Screenshot 0


******************************************************

Ride.2018.1080p.BluRay.x264.LLG.mp4
Format                                   : MPEG-4
Format profile                           : Base Media
Codec ID                                 : isom (isom/iso2/avc1/mp41)
File size                                : 2.07 GiB
Duration                                 : 1 h 16 min
Overall bit rate mode                    : Variable
Overall bit rate                         : 3 897 kb/s


Video
ID                                       : 1
Format                                   : AVC
Format/Info                              : Advanced Video Codec
Format profile                           : [email protected]
Format settings                          : CABAC / 1 Ref Frames
Format settings, CABAC                   : Yes
Format settings, RefFrames               : 1 frame
Codec ID                                 : avc1
Codec ID/Info                            : Advanced Video Coding
Duration                                 : 1 h 16 min
Bit rate mode                            : Variable
Bit rate                                 : 2 493 kb/s
Maximum bit rate                         : 7 500 kb/s
Width                                    : 1 920 pixels
Height                                   : 800 pixels
Display aspect ratio                     : 2.40:1
Frame rate mode                          : Constant
Frame rate                               : 23.976 (23976/1000) FPS
Color space                              : YUV
Chroma subsampling                       : 4:2:0
Bit depth                                : 8 bits
Scan type                                : Progressive
Bits/(Pixel*Frame)                       : 0.068
Stream size                              : 1.33 GiB (64%)


Audio
ID                                       : 2
Format                                   : DTS
Format/Info                              : Digital Theater Systems
Codec ID                                 : mp4a-A9
Duration                                 : 1 h 16 min
Bit rate mode                            : Constant
Bit rate                                 : 1 401 kb/s
Channel(s)                               : 2 channels
Channel layout                           : L R
Sampling rate                            : 48.0 kHz
Frame rate                               : 93.750 FPS (512 SPF)
Bit depth                                : 16 bits
Compression mode                         : Lossy
Stream size                              : 763 MiB (36%)
Language                                 : English
Default                                  : Yes
Alternate group                          : 1





********************************************************


  User comments

No comments have been posted yet.


Post anonymous comment
:) :( :D :P :-) B) 8o :? 8) ;) :-* :-( :| O:-D :-@ :o) brb :warn :help :bad :love :idea :bomb :!


CAPTCHA Image