Torrent details for "K.G.F Chapter 1.2018.720p.HDRip .Hindi.Clean.LLG"

Loading...
Torrent details
Cover
Download
Torrent rating (0 rated)
Controls:
Category:
Language:
Hindi
Total Size:
1.44 GB
Info Hash:
2c0f7ff450b7bcb509ddddb0bbc69e9ab27e5de4
Added By:
Added:  
05-02-2019 05:42
Views:
372
Health:
Seeds:
18
Leechers:
4
Completed:
41

File List : 
Title:
Genre:
Action, Drama
Runtime:
156 min    -    Rating: 9.1
Plot:
A period drama narrates the 1700-year-old history of oppressed waging wars against their oppressors. Set in the early 80s, KGF - the first chapter centers the protagonist who leads a battle...

Description

Quote:



******************************Thumbnail:**********************



******************************Screenshots:********************

Screenshot 1

Screenshot 2

Screenshot 3

Screenshot 4

Screenshot 5

Screenshot 6

Screenshot 7

Screenshot 8

Screenshot 9

Screenshot 0


******************************************************

K.G.F Chapter 1.2018.720p.HDRip .Hindi.Clean.LLG.mp4
Format                                   : MPEG-4
Format profile                           : Base Media
Codec ID                                 : isom (isom/iso2/avc1/mp41)
File size                                : 1.43 GiB
Duration                                 : 2 h 34 min
Overall bit rate mode                    : Variable
Overall bit rate                         : 1 326 kb/s


Video
ID                                       : 1
Format                                   : AVC
Format/Info                              : Advanced Video Codec
Format profile                           : [email protected]
Format settings                          : CABAC / 1 Ref Frames
Format settings, CABAC                   : Yes
Format settings, RefFrames               : 1 frame
Codec ID                                 : avc1
Codec ID/Info                            : Advanced Video Coding
Duration                                 : 2 h 34 min
Bit rate mode                            : Variable
Bit rate                                 : 1 194 kb/s
Maximum bit rate                         : 3 600 kb/s
Width                                    : 1 280 pixels
Height                                   : 544 pixels
Display aspect ratio                     : 2.35:1
Frame rate mode                          : Constant
Frame rate                               : 25.000 FPS
Color space                              : YUV
Chroma subsampling                       : 4:2:0
Bit depth                                : 8 bits
Scan type                                : Progressive
Bits/(Pixel*Frame)                       : 0.069
Stream size                              : 1.29 GiB (90%)


Audio
ID                                       : 2
Format                                   : MPEG Audio
Format version                           : Version 1
Format profile                           : Layer 3
Format settings                          : Joint stereo / MS Stereo
Codec ID                                 : mp4a-6B
Duration                                 : 2 h 34 min
Duration_LastFrame                       : -1 ms
Bit rate mode                            : Constant
Bit rate                                 : 128 kb/s
Channel(s)                               : 2 channels
Sampling rate                            : 48.0 kHz
Compression mode                         : Lossy
Stream size                              : 142 MiB (10%)
Writing library                          : LAME3.100
Language                                 : Hindi
Default                                  : Yes
Alternate group                          : 1



********************************************************


  User comments

No comments have been posted yet.


Post anonymous comment
:) :( :D :P :-) B) 8o :? 8) ;) :-* :-( :| O:-D :-@ :o) brb :warn :help :bad :love :idea :bomb :!


CAPTCHA Image